HD The Babysitter (2017) | Elite Starts 5th Oct 9:00am On Netflix NEW! | [Brazilian-Transsexuals] Kalliny Nomura (06 11 2018) rq mp4

[Moviesjug.net] The Predator (2018) Dual Audio [Hindi Cam + Engli...

  • Category Movies
  • Type Dubs/Dual Audio
  • Language Hindi
  • Total size 908.4 MB
  • Uploaded By Moviesjug
  • Downloads 741
  • Last checked 9 minutes ago
  • Date uploaded 3 hours ago
  • Seeders 45
  • Leechers 54

Infohash : C7A1CC7625D3220CA26DB59E7F085E44AA3578AF







VISIT OUR SITE
http://moviesjug.net/










SCREENSHOTS...








MEDIA INFO




General
The Predator (2018) Dual Audio [Hindi Cam + English] [Moviesjug.net] HDRip 720p AAC x264.mkv
Format : Matroska
Format version : Version 4 / Version 2
File size : 908 MiB
Duration : 1 h 46 min
Overall bit rate : 1 189 kb/s
Movie name : Downloladed From [Moviesjug.net]

Video
ID : 1
Format : AVC
Format/Info : Advanced Video Codec
Format profile : [email protected]
Format settings : CABAC / 4 Ref Frames
Format settings, CABAC : Yes
Format settings, RefFrames : 4 frames
Codec ID : V_MPEG4/ISO/AVC
Duration : 1 h 46 min
Bit rate : 1 065 kb/s
Width : 1 280 pixels
Height : 536 pixels
Display aspect ratio : 2.40:1
Frame rate mode : Constant
Frame rate : 30.000 FPS
Color space : YUV
Chroma subsampling : 4:2:0
Bit depth : 8 bits
Scan type : Progressive
Bits/(Pixel*Frame) : 0.052
Stream size : 810 MiB (89%)
Title : Downloladed From [Moviesjug.net]
Writing library : x264 core 155 r2901 7d0ff22
Language : English
Default : Yes
Forced : No
Color range : Limited
Color primaries : BT.709
Transfer characteristics : BT.709
Matrix coefficients : BT.709

Audio #1
ID : 2
Format : AAC
Format/Info : Advanced Audio Codec
Format profile : LC
Codec ID : A_AAC-2
Duration : 1 h 46 min
Bit rate : 80.1 kb/s
Channel(s) : 2 channels
Channel positions : Front: L R
Sampling rate : 48.0 kHz
Frame rate : 46.875 FPS (1024 SPF)
Compression mode : Lossy
Delay relative to video : -86 ms
Stream size : 61.2 MiB (7%)
Title : Downloladed From [Moviesjug.net]
Language : English
Default : No
Forced : No

Audio #2
ID : 3
Format : MPEG Audio
Format version : Version 2
Format profile : Layer 3
Format settings : Joint stereo / MS Stereo
Codec ID : A_MPEG/L3
Codec ID/Hint : MP3
Duration : 1 h 40 min
Bit rate mode : Constant
Bit rate : 48.0 kb/s
Channel(s) : 2 channels
Sampling rate : 22.05 kHz
Frame rate : 38.281 FPS (576 SPF)
Compression mode : Lossy
Delay relative to video : -36 ms
Stream size : 34.4 MiB (4%)
Title : Downloladed From [Moviesjug.net]
Language : Hindi
Default : Yes
Forced : No

Files:

[Moviesjug.net] The Predator (2018) Dual Audio [Hindi Cam + English] HDRip 720p AAC x264
  • Read this (Important).txt (0.1 KB)
  • Visit Our Site www.Moviesjug.net Click Here.url (0.1 KB)
  • The Predator (2018) Dual Audio [Hindi Cam + English] [Moviesjug.net] HDRip 720p AAC x264.mkv (908.4 MB)

There are currently no comments. Feel free to leave one :)

Code:

  • udp://tracker.openbittorrent.com:80/announce
  • udp://tracker.opentrackr.org:1337/announce
  • UDP://TRACKER.LEECHERS-PARADISE.ORG:6969/ANNOUNCE
  • UDP://TRACKER.COPPERSURFER.TK:6969/ANNOUNCE
  • UDP://TRACKER.OPENTRACKR.ORG:1337/ANNOUNCE
  • UDP://TRACKER.ZER0DAY.TO:1337/ANNOUNCE
  • UDP://EDDIE4.NL:6969/ANNOUNCE
Sitemap